bin datei + cue auf hdd entpacken

Dieses Thema bin datei + cue auf hdd entpacken im Forum "Software: Empfehlungen, Gesuche & Problemlösungen" wurde erstellt von TheDarkman, 28. Okt. 2005.

Thema: bin datei + cue auf hdd entpacken hallo zusammen, ich habe eine audio bin datei mit dem dazugehörigen cue. nun möchte ich diese bin nicht auf cd mit...

  1. hallo zusammen,

    ich habe eine audio bin datei mit dem dazugehörigen cue. nun möchte ich diese bin nicht auf cd mit der cue brennen, sondern lokal auf der platte haben. die cue soll mir nun die bin passend zerstückeln.

    was für ein programm gibt es dafür? welches empfehlt ihr dazu?
     
  2. Versuch mal IsoBuster
     
  3. Warum hast du das denn so umständlich erstellt? Mit Exact Audio Copy hättest du sofort ne große mp3 und die dazugehörige cue gehabt.
    Ich wage außerdem zu bezweifeln, dass in der cue Datei irgendwelche Trackgrenzen stehen, wenn die andere Datei ein Image ist. Da stehen dann wohl eher Anweisungen für das Brennprogramm drin.
     
  4. hallo,

    danke für die antworten. nein ich habe die bin datei mit cue bekommen. und normalerweise ist in der cue die info, wie die trakcs im audiobereich beispielsweise zu trennen sind. nun möchte ich das ganze aber nicht auf cd haben, sondern die einzelnen tracks auf der platte.

    er sollte sich also die bin nehmen, cue analysieren, sagen wohin die tracks gespeichert werden sollen und dann sich an die arbeit machen.
     
  5. Dann poste doch mal den Inhalt der cue bitte. :)
     
  6. so,

    ich habe jetzt mal eine cd von mir so erstellt. die cue sieht dann so aus:

    Code:
    PERFORMER Schiller
    TITLE Tag und Nacht
    FILE 01_Schiller_-_Tag_und_Nacht.mp3 MP3
     TRACK 01 AUDIO
      TITLE Willkommen
      PERFORMER Schiller
      INDEX 01 00:00:00
     TRACK 02 AUDIO
      TITLE Nachtflug
      PERFORMER Schiller
      INDEX 00 01:09:51
      INDEX 01 01:09:65
     TRACK 03 AUDIO
      TITLE Die Nacht... Du bist nicht allein
      PERFORMER Schiller
      INDEX 00 07:05:48
      INDEX 01 07:06:07
     TRACK 04 AUDIO
      TITLE What's Coming
      PERFORMER Schiller
      INDEX 00 11:31:66
      INDEX 01 11:32:10
     TRACK 05 AUDIO
      TITLE Sonnenaufgang
      PERFORMER Schiller
      INDEX 00 15:58:04
      INDEX 01 15:58:27
     TRACK 06 AUDIO
      TITLE Miles And Miles
      PERFORMER Schiller
      INDEX 01 19:12:39
     TRACK 07 AUDIO
      TITLE Schritt der Zeit
      PERFORMER Schiller
      INDEX 00 23:53:51
      INDEX 01 23:53:57
     TRACK 08 AUDIO
      TITLE I Know
      PERFORMER Schiller
      INDEX 00 26:49:35
      INDEX 01 26:49:68
     TRACK 09 AUDIO
      TITLE Morgentau
      PERFORMER Schiller
      INDEX 00 31:50:62
      INDEX 01 31:51:12
     TRACK 10 AUDIO
      TITLE Berlin Bombay
      PERFORMER Schiller
      INDEX 01 36:00:35
     TRACK 11 AUDIO
      TITLE Der Tag... Du bist erwacht
      PERFORMER Schiller
      INDEX 00 41:19:48
      INDEX 01 41:19:59
     TRACK 12 AUDIO
      TITLE Lichtwerk
      PERFORMER Schiller
      INDEX 01 45:20:07
     TRACK 13 AUDIO
      TITLE Falling
      PERFORMER Schiller
      INDEX 00 48:50:51
      INDEX 01 48:51:01
     TRACK 14 AUDIO
      TITLE Jahresringe
      PERFORMER Schiller
      INDEX 00 54:04:08
      INDEX 01 54:04:45
     TRACK 15 AUDIO
      TITLE I Saved You
      PERFORMER Schiller
      INDEX 00 57:45:64
      INDEX 01 57:46:31
     TRACK 16 AUDIO
      TITLE Irrlicht
      PERFORMER Schiller
      INDEX 00 62:25:16
      INDEX 01 62:25:58
     TRACK 17 AUDIO
      TITLE Feuerwerk
      PERFORMER Schiller
      INDEX 00 65:43:72
      INDEX 01 65:44:10
     TRACK 18 AUDIO
      TITLE Sleepy Storm
      PERFORMER Schiller
      INDEX 00 70:47:58
      INDEX 01 70:48:09
     TRACK 19 AUDIO
      TITLE Eine Stunde
      PERFORMER Schiller
      INDEX 00 75:57:42
      INDEX 01 75:57:74
    
    nun benötige ich ein programm, der mit dieser cue, die ganze (mp3)bin wieder in einzelne cd-tracks zerlegt.
     
  7. das proggi ist super. funktioniert genau wie ich es benötige. vielen dank.
     
  8. Noch eine andere Frage: Ist das ein neues Album von Schiller? Das wäre an mir vorbei gegangen. :-o
     
Die Seite wird geladen...

bin datei + cue auf hdd entpacken - Ähnliche Themen

Forum Datum
Entpacken von .PAL -Dateiformaten Windows XP Forum 24. März 2008
Problem mit dem entpacken von Dateien Software: Empfehlungen, Gesuche & Problemlösungen 2. Juni 2007
PC bleibt beim entpacken von .rar dateien hängen! Software: Empfehlungen, Gesuche & Problemlösungen 2. Sep. 2006
*.sea-Dateien unter Windows entpacken? Software: Empfehlungen, Gesuche & Problemlösungen 22. Mai 2006
Entpacken Setup-Programm? (Weitere hlp-Datei fehlt) Sonstiges rund ums Internet 6. Jan. 2006