große mp3 datei teilen?!?

Dieses Thema große mp3 datei teilen?!? im Forum "Software: Empfehlungen, Gesuche & Problemlösungen" wurde erstellt von nogger, 20. Sep. 2003.

Thema: große mp3 datei teilen?!? ich habe eine ca. 30 minütige mp3 datei eines remix-albums, welches von einem bekannen von mir selbst verfasst...

  1. ich habe eine ca. 30 minütige mp3 datei eines remix-albums, welches von einem bekannen von mir selbst verfasst wurde. ich möchte sie gern in kleine stücke zerteilen.
    mit welchem programm lässt sich das am besten machen?
     
  2. Hm, anstatt zerteilen könntest du ja auch eine cue Datei anlegen und dir Winampmp3cue als Plugin holen, dann kannst du bequem zwischen den Titeln hin- und her springen. Desweiteren kannst du diese Datei dann mit bspw. CDRWin brennen und auf dem CD-Player sind die Titel dann einzeln anwählbar.
    So ist zumindest der geringste Zeit- und Arbeitsaufwand.
     
  3. noch nie davon gehört. wie macht man denn das?
    ach ja: ich habe den winamp 2.9.
     
  4. Winamp 2.9x habe ich auch.
    Die cue-Datei kannst du dir selber schreiben, wenngleich es wohl auch Programme dafür gibt. Also einfach eine Textdatei anlegen, die aussehen könnte wie folgt:

    PERFORMER DER KÜNSTLER
    TITLE CD-BEZEICHNUNG
    FILE der genau Dateiname.endung MP3 (bei WAV entsprechend WAV usw.)
    TRACK 01 AUDIO
    TITLE Titel des Stücks
    INDEX 01 00:00:00 (Beginn des Stücks)
    TRACK 02 AUDIO
    TITLE Titel des Stücks
    INDEX 01 06:13:30 (Beginn des zweiten Stücks)
    TRACK 03 AUDIO
    TITLE Titel
    INDEX 01 09:29:22 (Beginn...)
    usw.

    Am Ende speicherst du diese Textdatei als Dateiname der mp3.cue und besorgst dir dieses Tool für Winamp klick mich
    Fertig!

    Wie gesagt, brennen geht ganz gut mit CDRWin oder Nero soll das wohl auch können, da hab ich es aber nicht mit getestet...
     
  5. Sorry verstehe dies auch nicht! Mit welchem Prog. kann man Lieder schneiden?
     
  6. ich hab es hinbekommen.
    danke.
    hat sich geklärt.
     
  7. Und wie hast du es nun gemacht??
    Datei geteilt oder ne cue geschrieben?
    Würde mich dann doch mal interessieren ;)
     
  8. ich hab die datei mit dem programm geteilt, was smartie in seinem beitrag gezeigt hat.
     
Die Seite wird geladen...

große mp3 datei teilen?!? - Ähnliche Themen

Forum Datum
Dateigröße nach Kopiervorgang unrealistisch groß Windows 10 Forum 26. März 2016
Dateigröße auslesen mit batch programmierung Software: Empfehlungen, Gesuche & Problemlösungen 6. Feb. 2015
Auschneiden von Bilddateien führt zur Veränderung der Dateigröße Windows 7 Forum 20. Juli 2014
Wie Verzeichnisgröße bzw. Größe selektierter Dateien im Explorer anzeigen lassen Windows 7 Forum 24. Mai 2014
pdf Datei Seitengröße und Schriftgröße verändern... oder konvertieren... Software: Empfehlungen, Gesuche & Problemlösungen 29. Dez. 2012