Kurze Frage für Neuling

Dieses Thema Kurze Frage für Neuling im Forum "Audio, Video und Brennen" wurde erstellt von Bertram, 24. Juli 2003.

Thema: Kurze Frage für Neuling Hallo, wenn man jetzt eine komplette original-CD in einem mp3-file hat - wie werden da wieder einzelne Titel draus?...

  1. Hallo,

    wenn man jetzt eine komplette original-CD in einem
    mp3-file hat - wie werden da wieder einzelne Titel draus?


    Danke
     
  2. Da brauchst du eine entsprechende cue-Datei zu, dann kann ein Brennprogramm (z.B. CDRWin) die Datei an den entsprechenden Stellen teilen. Eine cue-Datei kannst du auch selber erstellen mit dem Texteditor. Du mussst die Datei dann nur mit der Endung cue anstatt txt speichern. Eine cue-Datei kann z.B. so aussehen.

    PERFORMER Xavier Naidoo
    TITLE Alles gute vor uns / CD 1
    FILE Xavier Naidoo - Alles Gute Vor Uns CD1.mp3 MP3
    TRACK 01 AUDIO
    TITLE Intro
    INDEX 01 00:00:00
    TRACK 02 AUDIO
    TITLE Bevor du gehst
    INDEX 00 02:28:53
    INDEX 01 02:30:53
    TRACK 03 AUDIO
    TITLE Mägde und Knechte
    INDEX 00 07:14:39
    INDEX 01 07:16:39
    TRACK 04 AUDIO
    TITLE Wenn ich schon Kinder hätte
    INDEX 00 12:07:18
    INDEX 01 12:09:18
    TRACK 05 AUDIO
    TITLE Wer weiss schon, was der Morgen bringt / Ich lass sie sterben
    INDEX 00 17:20:16
    INDEX 01 17:22:16
    TRACK 06 AUDIO
    TITLE Wir haben alles gute vor uns
    INDEX 00 24:09:05
    INDEX 01 24:11:05
    TRACK 07 AUDIO
    TITLE Don't go now
    INDEX 00 30:17:20
    INDEX 01 30:19:20
    TRACK 08 AUDIO
    TITLE Alle Männer müssen Kämpfen
    INDEX 00 35:44:66
    INDEX 01 35:46:66
    TRACK 09 AUDIO
    TITLE Don't go now
    INDEX 00 41:22:45
    INDEX 01 41:24:45
    TRACK 10 AUDIO
    TITLE Auf Herz und Nieren
    INDEX 00 46:54:16
    INDEX 01 46:56:16

    In Winamp kannst du die Datei aber auch schon aufteilen. Dafür brauchst du ein Plugin, welches mit den cue Dateien umgehen kann. Das bekommst du hier: klick
     
  3. Danke für die schnelle Hilfe

    jetzt muß ich nur noch so eine Datei schreiben :) :)
     
  4. ;D
    oder Du nimmst den cue creator
    http://www.freeware.de/software/Programm_GUG_Cue_Creator_8907.html

    Gruss
     
Die Seite wird geladen...

Kurze Frage für Neuling - Ähnliche Themen

Forum Datum
kurze 15minütige Onlineumfrage Windows XP Forum 20. Feb. 2012
Kurze Frage zu Temp Dateien Windows XP Forum 3. Aug. 2007
Kurze Frage zum "Drüberbügeln" von Windows XP Windows XP Forum 5. Dez. 2005
Kurze Frage zur Absicherung Windows XP Forum 17. Sep. 2005
Kurze Frage: Lokale Anmeldung trotz AD? Windows XP Forum 20. Juli 2005