MP3 splitten mit mp3DirectCut 2.02

Dieses Thema MP3 splitten mit mp3DirectCut 2.02 im Forum "Audio, Video und Brennen" wurde erstellt von Mikra83, 13. Juni 2006.

Thema: MP3 splitten mit mp3DirectCut 2.02 Hi, habe ne .mp3 (VBR) und ne dazugehörige .cue Datei. Nun lade ich die .mp3 mit mp3DirectCut 2.02 und lade .cue...

  1. Hi,
    habe ne .mp3 (VBR) und ne dazugehörige .cue Datei. Nun lade ich die .mp3 mit mp3DirectCut 2.02 und lade .cue über aktuelle .mp3.
    Unter Liste stehen die Zeiten laut der .cue Datei. Wenn ich aber nun geteilt speichern will, wird zwar gesplittet, aber nicht wie es in der .cue
    die erste mp3 laut 01:25:57 aber gesplittet 1:33:56. Halt zuspät!
    Woran liegt das. Hab ich da neu falsche einstellung gewählt.

    Kann mir da jemand helfen??

    Gruß Mikra83
     
  2. Poste doch bitte einmal die cue ;)
     
  3. Hier isse:

    PERFORMER VA
    TITLE Hardbass Chapter 8
    FILE 01_va_-_hardbass_chapter_8_cd1_mixed_by_bass-t_vs._rocco.mp3 MP3
    TRACK 01 AUDIO
    TITLE Hardbass 8 Intro
    PERFORMER Bass-T
    INDEX 01 00:00:00
    TRACK 02 AUDIO
    TITLE Let The Music Play
    PERFORMER Walt
    INDEX 01 01:25:57
    TRACK 03 AUDIO
    TITLE Disc-O-Tec
    PERFORMER Verano
    INDEX 01 04:21:20
    TRACK 04 AUDIO
    TITLE Puta Madre
    PERFORMER Showtek
    INDEX 01 05:28:65
    TRACK 05 AUDIO
    TITLE Rainbow
    PERFORMER DJ Rob
    INDEX 01 07:40:40
    TRACK 06 AUDIO
    TITLE Don't Leave Me
    PERFORMER Zorneus DJ Team
    INDEX 01 09:21:56
    TRACK 07 AUDIO
    TITLE Ubap
    PERFORMER The Boyscouts
    INDEX 01 11:14:16
    TRACK 08 AUDIO
    TITLE Wicked
    PERFORMER Jens O.
    INDEX 01 15:05:30
    TRACK 09 AUDIO
    TITLE U Will Be Dancing
    PERFORMER S-te-Fan
    INDEX 01 18:50:43
    TRACK 10 AUDIO
    TITLE Iron
    PERFORMER Jesselyn
    INDEX 01 22:32:73
    TRACK 11 AUDIO
    TITLE In My Head
    PERFORMER Sonic Ti
    INDEX 01 24:39:29
    TRACK 12 AUDIO
    TITLE Living On Video
    PERFORMER O' Heller Project
    INDEX 01 27:17:24
    TRACK 13 AUDIO
    TITLE Dubble Dubby
    PERFORMER Mike Newman
    INDEX 01 32:23:42
    TRACK 14 AUDIO
    TITLE Stereophobia
    PERFORMER Dark Oscillators
    INDEX 01 34:37:65
    TRACK 15 AUDIO
    TITLE Pump Up The Bass 2006
    PERFORMER Ultrasonic
    INDEX 01 38:30:63
    TRACK 16 AUDIO
    TITLE Pumpin
    PERFORMER Bass-T
    INDEX 01 40:54:04
    TRACK 17 AUDIO
    TITLE Listen (I Will Always Love You)
    PERFORMER Patrick Bunton
    INDEX 01 45:19:66
    TRACK 18 AUDIO
    TITLE Gimme Five
    PERFORMER The Ripper
    INDEX 01 48:41:38
    TRACK 19 AUDIO
    TITLE Energetiq
    PERFORMER Looney Tunez
    INDEX 01 51:39:13
    TRACK 20 AUDIO
    TITLE Raindrops
    PERFORMER Bass-T
    INDEX 01 53:11:60
    TRACK 21 AUDIO
    TITLE Move It!
    PERFORMER Dancehall Terrorists
    INDEX 01 58:25:57
    TRACK 22 AUDIO
    TITLE Nuclear Reaction
    PERFORMER Ballistic
    INDEX 01 60:28:13
    TRACK 23 AUDIO
    TITLE Reach For The Light
    PERFORMER Double Nation
    INDEX 01 65:22:68
    TRACK 24 AUDIO
    TITLE Widowmaker
    PERFORMER Zany, DJ
    INDEX 01 68:18:04
    TRACK 25 AUDIO
    TITLE Harder
    PERFORMER Deepforces
    INDEX 01 71:27:11
     
  4. hi,
    damit gibts bei mir probleme mit dem erstem track. Da kommt immer dieser Fehler:
    Completed, but with 1 frame errors. 89 bytes skipped.
    Egal welche Mp3´s ich splitten wollte. Die mp3 wird mit 32kbit/s angegeben, läuft aber mit vbr, aut anzeige in winamp. Und der track ist real 1:30min lan, angezeigt wird aber 17min?????

    Gruß Mikra83
     
  5. Das mit der verkehrten Bitraten-Angabe liegt am VBR und die Längeanzeige kommt bei VBR das ein- oder andere Mal auch durcheinander.
    Ich hab hier ne Datei die hat 547 Minuten oder so, angezeigt wird in Winamp aber nur 17 Minuten ;)

    Insgesamt bleibt zu sagen, kauf dir das Teil und du hast keine Probleme... :)
     
Die Seite wird geladen...

MP3 splitten mit mp3DirectCut 2.02 - Ähnliche Themen

Forum Datum
Bourne Shell - Dateinamen absplitten Windows XP Forum 21. Juni 2012
Re: .wmv splitten ? Windows XP Forum 28. Okt. 2007
dvd splitten Audio, Video und Brennen 16. Aug. 2008
Acronis True Image 11 Home - Image nachträglich splitten Software: Empfehlungen, Gesuche & Problemlösungen 17. Juli 2008
DVB-T Antennensignal splitten Sonstiges rund um den PC & Kaufberatung 25. Dez. 2007