Multitalent gesucht - Audioschnitt + Brennen

Dieses Thema Multitalent gesucht - Audioschnitt + Brennen im Forum "Software: Empfehlungen, Gesuche & Problemlösungen" wurde erstellt von superfussball, 2. Feb. 2006.

Thema: Multitalent gesucht - Audioschnitt + Brennen Icvh bins gleich nochmal. Kennt jemand das Problem, dass er einen großen Audiotrack aufgenommen hat, bspw. ein...

  1. Icvh bins gleich nochmal. Kennt jemand das Problem, dass er einen großen Audiotrack aufgenommen hat, bspw. ein Konzert über Line-In oder DVB und es dann schneiden und auf CD brennen möchte, jedoch der Player trotz eingestellter Pausen-auslassen und genauem Schnitt dennoch Pausen lässt.

    Ich habe als DJ mehrere Einzeltrack zu einem Mix zusammengefügt mit Magix Music Maker 2005 Silver udn dann habe ich mit Mp3-Directcut die Titel exakt geschnitten und mit Nero pausenfrei gebrannt. Das erschreckende. Pausen sind trotzdem da.

    Weiß jemand Rat?
     
  2. Jo, du musst zu einer großen mp3-Datei ne cue generieren. DIese kann vom Brennprogramm entsprechend verarbeitet werden.
    Da es sich bei mp3 Dateien um Datendateien handelt, die in Frames abgearbeitet werden, lässt sich eine Pause zwischen den Dateien _ohne_ cue nicht vermeiden.
     
  3. Kennst du denn so ein Programm? Ein Link wäre geil! :)
     
  4. Klar, dein Editor. :)
    Ansonsten gibt es noch CueMaster http://www.wintotal.de/Software/index.php?id=2352, aber wenn du einfach was aufgenommen hast ist die Wahrscheinlichkeit eher gering, dass du ne entsprechende cue finden wirst. Von daher wäre dann selbst schreiben angesagt.

    Hier mal ein Ausschnitt aus einer cue, damit du siehst, wie sie aufgebaut werden muss.

    Naja, immer so weiter, bis du am Ende der Datei angelangt bist.
     
  5. Der Cue funktiniert, leider habe ich aber kein Brennprogramm, dass Cues unterstützt.
     
  6. Ich habe jetzt die fertige Cue und die Komplette Mp3-Datei, weiß aber nicht, ob ich bei Nero Daten CD brennen soll oder Audio oder Image.

    Soll ich dann beide Datein zusammen brennen?
     
  7. Leider ist beim Laden der cue ein Fehler aufgetreten. Laut Nero in Zeile 71

    PERFORMER Dj Cassiopeia
    TITLE In The Mix Vol.1
    FILE Cassio.mp3 Mp3
    TRACK 01 AUDIO
    PERFORMER Kyau vs. Albert
    TITLE Kiksu
    INDEX 01 00:00:00
    TRACK 02 AUDIO
    PERFORMER Mike Koglin
    TITLE Sequential
    INDEX 01 02:51:21
    TRACK 03 AUDIO
    PERFORMER Duende
    TITLE Ilimitado
    INDEX 01 06:46:15
    TRACK 04 AUDIO
    PERFORMER White Room feat. Amy Cooper
    TITLE Someday
    INDEX 01 10:44:68
    TRACK 05 AUDIO
    PERFORMER Santiago Nino
    TITLE Believe
    INDEX 01 15:23:09
    TRACK 06 AUDIO
    PERFORMER Ronski Speed & Sebastain Sand
    TITLE Sole Survivor
    INDEX 01 18:31:30
    TRACK 07 AUDIO
    PERFORMER Jose Zamora Damian DP feat. Paleday
    TITLE Transatlantic
    INDEX 01 22:00:70
    TRACK 08 AUDIO
    PERFORMER Armin Van Buuren
    TITLE x
    INDEX 01 25:48:23
    TRACK 09 AUDIO
    PERFORMER Ernesto vs. Bastian
    TITLE Dark Side Of The Moon
    INDEX 01 30:41:20
    TRACK 10 AUDIO
    PERFORMER Blank & Jones
    TITLE Summer Sun
    INDEX 01 34:23:57
    TRACK 11 AUDIO
    PERFORMER Purple Haze
    TITLE Adrenalin (Dj Cassiopeia Shortmix)
    INDEX 01 37:41:30
    TRACK 12 AUDIO
    PERFORMER Wellenrausch
    TITLE Carry On
    INDEX 01 39:32:26
    TRACK 13 AUDIO
    PERFORMER Tomonari & Tommy Pi
    TITLE C-Sharp
    INDEX 01 43:07:62
    TRACK 14 AUDIO
    PERFORMER Active Sight
    TITLE Out Of Our Lives
    INDEX 01 47:53:11
    TRACK 15 AUDIO
    PERFORMER Aalto
    TITLE Rush (Dj Cassiopeia Shortmix)
    INDEX 01 51:40:19
    TRACK 16 AUDIO
    PERFORMER Tiesto
    TITLE UR
    INDEX 01 53:17:55
    TRACK 17 AUDIO
    PERFORMER Blank & Jones
    TITLE The Most Perfect Silence (Dj Cassiopeia Special Part 1)
    INDEX 01 57:12:80
    TRACK 18 AUDIO
    PERFORMER Sono
    TITLE 2000 Guns (Dj Cassiopeia Shortmix)
    INDEX 01 59:44:19
    TRACK 19 AUDIO
    PERFORMER Blank & Jones
    TITLE The Most Perfect Silence (Dj Cassiopeia Special Part 2)
    INDEX 01 62:04:45
    TRACK 20 AUDIO
    PERFORMER Ayla
    TITLE Sunrise
    INDEX 01 64:07:66
    TRACK 21 AUDIO
    PERFORMER Paul Van Dyk
    TITLE Celice (Special Dj Cassiopeia Mix)
    INDEX 01 67:18:64
    TRACK 22 AUDIO
    PERFORMER 4 Strings
    TITLE Desire (Dj Cassiopeia Shortmix)
    INDEX 01 71:03:27
    TRACK 23 AUDIO
    PERFORMER Blank & Jones
    TITLE Revealed
    INDEX 01 72:44:31
     
  8. Hoffe, ich hab mich nicht in der Zeile geirrt. kann die cue ohne Probleme mit Mp3-Directcut öffnen. Warum funzt das denn nur nicht? :'(
     
  9. brennst Du auch immer brav disc-at-once ? Wenn nicht (also bei Track-at-once) gibts beim Brennen immer Pausen zwischen den Tracks.

    Probiers doch nochmals mit Nero aus  ::)
     
Die Seite wird geladen...

Multitalent gesucht - Audioschnitt + Brennen - Ähnliche Themen

Forum Datum
[Artikel] - Unbekanntes Multitalent – Der Ressourcenmonitor von Windows 7 Windows XP Forum 26. Juni 2011
Excel-Feature gesucht Microsoft Office Suite 11. Okt. 2016
Hilfe zu einem einfachen Batchjob gesucht Software: Empfehlungen, Gesuche & Problemlösungen 22. Mai 2016
Hilfe gesucht: Hardware oder Softwarefehler? Software: Empfehlungen, Gesuche & Problemlösungen 4. Okt. 2015
Dringende Info gesucht Windows 10 Forum 3. Okt. 2015